There are currently 3178 movies on our website.

Watch Amelia 2 0 2017 WEB-DL XviD AC3-EVO Online Free

0
( High Definition )

Watch Amelia 2 0 2017 WEB-DL XviD AC3-EVO Online Free

Drama / Romance


[title]Amelia 2.0 2017 WEB-DL.XviD.AC3-EVO[/title]


[color=blue][size=5]Amelia 2.0 (2017)[/size][/color]

1h 29min | Drama, Romance, Sci-Fi | 4 August 2017 (USA)
When the husband of a dying woman is approached by a corporation pioneering a new program to extend life through robotics, they get caught in a public debate over human’s relationship with technology.
Director: Adam Orton
Writer: Rob Merritt

http://www.imdb.com/title/tt3831344/

Kate Vernon…Dr. Ellen Beckett
Ed Begley Jr….Paul Wesley
Debra Wilson…Adah Allen
Eddie Jemison…Max Parker
Chris Ellis…Senator Thaddeus
Kamar de los Reyes…Vaughn
Angela Billman…Amelia Summerland













[pre]General
Complete name : Amelia 2.0 2017 WEB-DL.XviD.AC3-EVO.avi
Format : AVI
Format/Info : Audio Video Interleave
File size : 1.28 GiB
Duration : 1 h 29 min
Overall bit rate : 2 044 kb/s
Writing library : VirtualDub build 35491/release
Video
ID : 0
Format : MPEG-4 Visual
Format profile : [email protected]
Format settings, BVOP : No
Format settings, QPel : No
Format settings, GMC : No warppoints
Format settings, Matrix : Default (H.263)
Codec ID : XVID
Codec ID/Hint : XviD
Duration : 1 h 29 min
Bit rate : 1 650 kb/s
Width : 720 pixels
Height : 400 pixels
Display aspect ratio : 16:9
Frame rate : 23.976 (24000/1001) FPS
Color space : YUV
Chroma subsampling : 4:2:0
Bit depth : 8 bits
Scan type : Progressive
Compression mode : Lossy
Bits/(Pixel*Frame) : 0.239
Stream size : 1.03 GiB (81%)
Writing library : Lavc57.100.103
Audio
ID : 1
Format : AC-3
Format/Info : Audio Coding 3
Format settings, Endianness : Big
Codec ID : 2000
Duration : 1 h 29 min
Bit rate mode : Constant
Bit rate : 384 kb/s
Channel(s) : 6 channels
Channel positions : Front: L C R, Side: L R, LFE
Sampling rate : 48.0 kHz
Frame rate : 31.250 FPS (1536 spf)
Bit depth : 16 bits
Compression mode : Lossy
Stream size : 246 MiB (19%)
Alignment : Aligned on interleaves
Interleave, duration : 42 ms (1.00 video frame)
Interleave, preload duratio : 512 ms
Service kind : Complete Main
[/pre]

Watch Amelia 2.0 (2017) online Free

http://www.imdb.com/title/tt3831344/
6.6

Kate Vernon / Ed Begley Jr. / Debra Wilson / Eddie Jemison / Chris Ellis / Kamar de los Reyes / Angela Billman / Ben Whitehair / Rachelle Carson / Malcolm Danare / John Livingston / Alexandra Vino / Malorie Mackey / Jesse Henecke / Rob Merritt
When his wife Amelia suffers an aneurysm that leaves her bedridden and slowly dying, police officer Carter Summerland searches for a way to revive her. He’s approached by Wesley Enterprises about allowing Amelia to be the test subject for an experimental program that will place her mind in a new, artificial body – and out of desperation, Carter agrees. But is the result really Amelia Summerland? Or is it something else entirely? Set in the very near future, The Summerland Project uses current, existing technology as a launchpad for a story about where the line truly is between life and death, and to ask the question: What is is that makes us human?. It explores the motivations behind the team that creates Amelia, from genius but standoffish Dr. Ellen Beckett to the kind yet arrogant industrialist Paul Wesley, who funds the work. It explores the fallout in the scientific, legal and religious community, with opposition to the project spearheaded by the passionate Senator Williams. But …
89

33 views
Comments WOULD YOU LIKE TO COMMENT ?

You have to be logged in to post a comment ..