There are currently 3178 movies on our website.

Watch Bedazzled 2000 iNTERNAL DVDRip XviD-EXViDiNT Online Free

0
( High Definition )

Watch Bedazzled 2000 iNTERNAL DVDRip XviD-EXViDiNT Online Free

Comedy / Fantasy

EXVID
Filled the Archives
With:
E240
SP (C) 2009
Bedazzled.2000.iNTERNAL.DVDRip.XviD-EXViDiNT
EXViD aims to iNTERNAL those releases which have been lost in the archives.
EXViD aims to PRE non-internal releases which have poor sources and are likely skipped by others.
http://www.imdb.com/title/tt0230030/
Subtitles: EN, ES, FR
Date: 2012.10
Director: Harold Ramis
Genres: Comedy | Fantasy
Plot:
Elliot Richardson, suicidal techno geek, is given seven wishes to turn his life around when he
meets up with a very seductive Satan. The catch: his soul. Some of his wishes include a 7 foot
basketball star, a rock star, and a hamburger. But, as could be expected, the Devil must put her
own little twist on each his fantasies.
Cast:
Brendan Fraser…Elliot Richards
Elizabeth Hurley…The Devil
Frances O’Connor…Alison Gardner
Miriam Shor…Carol / Penthouse Hostess
Orlando Jones…Daniel / Dan / Danny / Esteban / Beach Jock / Lamar Garrett / Dr. Ngegitigegitibaba
Paul Adelstein…Bob / Roberto / Beach Jock / Bob Bob (Sportscaster #3)
Toby Huss…Jerry / Alejandro / Beach Jock / Jerry Turner (Sportscaster #2) / Lance
Gabriel Casseus…Elliot’s Cellmate / Angel
Brian Doyle-Murray…Priest
Jeff Doucette…Desk Sergeant
Aaron Lustig…Synedyne Supervisor
Rudolf Martin…Raoul
Julian Firth…John Wilkes Booth
Iain Rogerson…Play Actor
Biddy Hodson…Play Actor
Stats:
Format : AVI
Format/Info : Audio Video Interleave
File size : 699 MiB
Duration : 1h 33mn
Overall bit rate mode : Variable
Overall bit rate : 1 050 Kbps
Video
ID : 0
Format : MPEG-4 Visual
Format profile : Advanced [email protected]
Format settings, BVOP : 2
Format settings, QPel : No
Format settings, GMC : No warppoints
Format settings, Matrix : Default (H.263)
Codec ID : XVID
Codec ID/Hint : XviD
Duration : 1h 33mn
Bit rate : 905 Kbps
Width : 640 pixels
Height : 272 pixels
Display aspect ratio : 2.35:1
Frame rate : 23.976 fps
Color space : YUV
Chroma subsampling : 4:2:0
Bit depth : 8 bits
Scan type : Progressive
Compression mode : Lossy
Bits/(Pixel*Frame) : 0.217
Stream size : 603 MiB (86%)
Writing library : XviD 64
Audio
ID : 1
Format : MPEG Audio
Format version : Version 1
Format profile : Layer 3
Mode : Joint stereo
Mode extension : MS Stereo
Codec ID : 55
Codec ID/Hint : MP3
Duration : 1h 33mn
Bit rate mode : Variable
Bit rate : 132 Kbps
Channel(s) : 2 channels
Sampling rate : 48.0 KHz
Compression mode : Lossy
Stream size : 88.2 MiB (13%)
Alignment : Aligned on interleaves
Interleave, duration : 24 ms (0.58 video frame)
Interleave, preload duration : 121 ms
Writing library : LAME3.98.4
Release notes:
Enjoy!
Looking for:
75TB+ Archives
DUTCH/FLEMiSH Archives
Greets: CRBS EPiSODE FiCO FLS iLS KLASSiGER LiPSYNC MADE NODLABS RUNNER SPRiNTER
ASCII DONE BY XX^NFO 2oo9
RLS-Crc: 415243414445:42EECD90

Watch Bedazzled (2000) online Free

http://www.imdb.com/title/tt0230030/
6.0

Brendan Fraser / Elizabeth Hurley / Frances O’Connor / Miriam Shor / Orlando Jones / Paul Adelstein / Toby Huss / Gabriel Casseus / Brian Doyle-Murray / Jeff Doucette / Aaron Lustig / Rudolf Martin / Julian Firth / Iain Rogerson / Biddy Hodson
Elliot Richardson, a socially awkward IT worker, is given seven wishes to get the girl of his dreams when he meets up with a very seductive Satan. The catch: his soul. Some of his wishes include being a 7 foot basketball star, a wealthy, powerful man, and a sensitive caring guy. But, as could be expected, the Devil must put her own little twist on each his fantasies.
93
The she devil is giving Elliot seven wishes but not a chance in hell.

34 views
Comments WOULD YOU LIKE TO COMMENT ?

You have to be logged in to post a comment ..