There are currently 3542 movies on our website

Watch Guardians of the Galaxy Vol 2 2017 BRRip x264 AAC-SSNOnline Free

0
(High Definition)

Watch Guardians of the Galaxy Vol 2 2017 BRRip x264 AAC-SSN Online Free

Action / Adventure

General
Complete name : Guardians of the Galaxy Vol.2 2017 BRRip x264 AAC-SSN.mkv
Format : Matroska
Format version : Version 4 / Version 2
File size : 1.70 GiB
Duration : 2 h 15 min
Overall bit rate : 1 789 kb/s
Encoded date : UTC 2017-08-09 09:19:17
Writing application : mkvmerge v13.0.0 (‘The Juggler’) 64bit
Writing library : libebml v1.3.4 + libmatroska v1.4.5
Video
ID : 1
Format : AVC
Format/Info : Advanced Video Codec
Format profile : [email protected]
Format settings, CABAC : Yes
Format settings, ReFrames : 5 frames
Codec ID : V_MPEG4/ISO/AVC
Duration : 2 h 15 min
Bit rate : 1 457 kb/s
Width : 900 pixels
Height : 376 pixels
Display aspect ratio : 2.40:1
Frame rate mode : Constant
Frame rate : 23.976 (24000/1001) FPS
Color space : YUV
Chroma subsampling : 4:2:0
Bit depth : 8 bits
Scan type : Progressive
Bits/(Pixel*Frame) : 0.180
Stream size : 1.38 GiB (81%)
Writing library : x264 core 152 r2851 ba24899
Encoding settings : cabac=1 / ref=5 / deblock=1:0:0 / analyse=0x3:0x112 / me=dia / subme=1 / psy=0 / mixed_ref=1 / me_range=16 / chroma_me=1 / trellis=0 / 8x8dct=1 / cqm=0 / deadzone=22,11 / fast_pskip=1 / chroma_qp_offset=1 / threads=6 / lookahead_threads=2 / sliced_threads=0 / nr=0 / decimate=1 / interlaced=0 / bluray_compat=0 / constrained_intra=0 / bframes=10 / b_pyramid=2 / b_adapt=2 / b_bias=23 / direct=3 / weightb=1 / open_gop=1 / weightp=2 / keyint=250 / keyint_min=1 / scenecut=40 / intra_refresh=0 / rc_lookahead=100 / rc=2pass / mbtree=1 / bitrate=1457 / ratetol=3.0 / qcomp=0.80 / qpmin=10 / qpmax=40 / qpstep=3 / cplxblur=20.0 / qblur=0.5 / vbv_maxrate=50000 / vbv_bufsize=50000 / nal_hrd=none / filler=0 / ip_ratio=1.30 / aq=1:1.00
Language : English
Default : Yes
Forced : No
Audio
ID : 2
Format : AAC
Format/Info : Advanced Audio Codec
Format profile : LC
Codec ID : A_AAC
Duration : 2 h 15 min
Bit rate : 332 kb/s
Channel(s) : 6 channels
Channel positions : Front: L C R, Side: L R, LFE
Sampling rate : 32.0 kHz
Frame rate : 31.250 FPS (1024 spf)
Compression mode : Lossy
Stream size : 322 MiB (19%)
Language : English
Default : Yes
Forced : No

tt3896198
Guardians of the Galaxy Vol. 2 (2017)
Guardians of the Galaxy Vol. 2
2017

http://www.imdb.com/title/tt3896198/
8.0

Chris Pratt / Zoe Saldana / Dave Bautista / Vin Diesel / Bradley Cooper / Michael Rooker / Karen Gillan / Pom Klementieff / Sylvester Stallone / Kurt Russell / Elizabeth Debicki / Chris Sullivan / Sean Gunn / Tommy Flanagan / Laura Haddock
After saving Xandar from Ronan’s wrath, the Guardians are now recognized as heroes. Now the team must help their leader Star Lord (Chris Pratt) uncover the truth behind his true heritage. Along the way, old foes turn to allies and betrayal is blooming. And the Guardians find that they are up against a devastating new menace who is out to rule the galaxy.
136
You only get one chance to save the galaxy twice.

127 views
FILM DETAILS Added 3 months ago
Guardians of the Galaxy Vol 2 2017 BRRip x264 AAC-SSN

Watch Guardians of the Galaxy Vol 2 2017 BRRip x264 AAC-SSN Online Free Action / Adventure General Complete name : Guardians of the Galaxy Vol.2 2017 BRRip x264 AAC-SSN.mkv Format : Matroska Format version : Version 4 / Version 2 File size : 1.70 GiB Duration : 2 h 15 min Overall bit rate : […]

Genre: Action, Adventure

COMMENTS


You need to be logged in to post a comment.