There are currently 3178 movies on our website.

Watch Monkey Up 2016 DVDRip XViD-VVEXO Online Free

0
( High Definition )

Watch Monkey Up 2016 DVDRip XViD-VVEXO Online Free

Comedy / Family / Fantasy




[title]Monkey Up 2016 DVDRip.XViD-VVEXO[/title]


[color=blue][size=5]Monkey Up (2016)[/size][/color]

PG | 1h 23min | Comedy, Family, Fantasy | 22 January 2016 (USA)
With their parents preoccupied with their new careers, a young girl and her brother befriend a talking monkey who is struggling to be taken seriously as an actor.
Director: Robert Vince
Writers: Robert Vince, Anna McRoberts

http://www.imdb.com/title/tt4820278/

Larke Miller…Heroine
Michael Teigen…Henchman
Skylar Astin…Monty (voice)
David Milchard…Desmond
Chris Coppola…
StanKayden Magnuson…Sophie Andrews
Erin Allin O’Reilly…Clare Andrews (as Erin Allin)














[pre]General
Complete name : Monkey Up 2016 DVDRip.XViD-VVEXO.avi
Format : AVI
Format/Info : Audio Video Interleave
File size : 700 MiB
Duration : 1 h 22 min
Overall bit rate : 1 182 kb/s
Writing library : VirtualDub build 35491/release
Video
ID : 0
Format : MPEG-4 Visual
Format profile : Advanced [email protected]
Format settings, BVOP : 2
Format settings, QPel : No
Format settings, GMC : No warppoints
Format settings, Matrix : Default (H.263)
Muxing mode : Packed bitstream
Codec ID : XVID
Codec ID/Hint : XviD
Duration : 1 h 22 min
Bit rate : 1 044 kb/s
Width : 640 pixels
Height : 352 pixels
Display aspect ratio : 16:9
Frame rate : 23.976 (24000/1001) FPS
Color space : YUV
Chroma subsampling : 4:2:0
Bit depth : 8 bits
Scan type : Progressive
Compression mode : Lossy
Bits/(Pixel*Frame) : 0.193
Stream size : 618 MiB (88%)
Writing library : XviD 67
Audio
ID : 1
Format : MPEG Audio
Format version : Version 1
Format profile : Layer 3
Mode : Joint stereo
Mode extension : MS Stereo
Codec ID : 55
Codec ID/Hint : MP3
Duration : 1 h 22 min
Bit rate mode : Constant
Bit rate : 128 kb/s
Channel(s) : 2 channels
Sampling rate : 48.0 kHz
Compression mode : Lossy
Stream size : 75.8 MiB (11%)
Alignment : Split accross interleaves
Interleave, duration : 42 ms (1.00 video frame)
Interleave, preload duratio : 500 ms
Writing library : LAME3.99r
Encoding settings : -m j -V 4 -q 3 -lowpass 17 -b 128
[/pre]

tt4820278
Monkey Up (2016)
Monkey Up
2016

http://www.imdb.com/title/tt4820278/
4.4

Larke Miller / Michael Teigen / Skylar Astin / David Milchard / Chris Coppola / Kayden Magnuson / Erin Allin O’Reilly / Caleb Burgess / Yasmeene Ball / Jonathan Mangum / Sasha Belousovski / Tatiana Gudegast / Jessi Cruickshank / Jonathan Mason / Thomas Cadrot
With their parents preoccupied with their new careers, a young girl and her brother befriend a talking monkey who is struggling to be taken seriously as an actor.
83
The Fast and the Furriest

126 views
Comments WOULD YOU LIKE TO COMMENT ?

You have to be logged in to post a comment ..