There are currently 3178 movies on our website.

Watch Monkey Up 2016 HDRip XviD AC3-6CH-VVEXO Online Free

0
( High Definition )

Watch Monkey Up 2016 HDRip XviD AC3-6CH-VVEXO Online Free

Comedy / Family / Fantasy


[title]Monkey Up 2016 HDRip.XviD.AC3-6CH-VVEXO[/title]


[color=blue][size=5]Monkey Up (2016)[/size][/color]

PG | 1h 23min | Comedy, Family, Fantasy | 22 January 2016 (USA)
With their parents preoccupied with their new careers, a young girl and her brother befriend a talking monkey who is struggling to be taken seriously as an actor.
Director: Robert Vince
Writers: Robert Vince, Anna McRoberts

http://www.imdb.com/title/tt4820278/

Larke Miller…Heroine
Michael Teigen…Henchman
Skylar Astin…Monty (voice)
David Milchard…Desmond
Chris Coppola…
StanKayden Magnuson…Sophie Andrews
Erin Allin O’Reilly…Clare Andrews (as Erin Allin)














[pre]General
Complete name : Monkey Up 2016 HDRip.XviD.AC3-6CH-VVEXO.avi
Format : AVI
Format/Info : Audio Video Interleave
File size : 1.39 GiB
Duration : 1 h 22 min
Overall bit rate : 2 410 kb/s
Writing library : VirtualDub build 32593/release
Video
ID : 0
Format : MPEG-4 Visual
Format profile : Advanced Simple@L5
Format settings, BVOP : 2
Format settings, QPel : No
Format settings, GMC : No warppoints
Format settings, Matrix : Default (H.263)
Muxing mode : Packed bitstream
Codec ID : XVID
Codec ID/Hint : XviD
Duration : 1 h 22 min
Bit rate : 2 017 kb/s
Width : 720 pixels
Height : 400 pixels
Display aspect ratio : 16:9
Frame rate : 23.976 (24000/1001) FPS
Color space : YUV
Chroma subsampling : 4:2:0
Bit depth : 8 bits
Scan type : Progressive
Compression mode : Lossy
Bits/(Pixel*Frame) : 0.292
Stream size : 1.17 GiB (84%)
Writing library : XviD 66
Audio
ID : 1
Format : AC-3
Format/Info : Audio Coding 3
Format settings, Endianness : Big
Codec ID : 2000
Duration : 1 h 22 min
Bit rate mode : Constant
Bit rate : 384 kb/s
Channel(s) : 6 channels
Channel positions : Front: L C R, Side: L R, LFE
Sampling rate : 48.0 kHz
Frame rate : 31.250 FPS (1536 spf)
Bit depth : 16 bits
Compression mode : Lossy
Stream size : 227 MiB (16%)
Alignment : Aligned on interleaves
Interleave, duration : 42 ms (1.00 video frame)
Interleave, preload duratio : 512 ms
Service kind : Complete Main
[/pre]

Watch Monkey Up (2016) online Free

http://www.imdb.com/title/tt4820278/
4.4

Larke Miller / Michael Teigen / Skylar Astin / David Milchard / Chris Coppola / Kayden Magnuson / Erin Allin O’Reilly / Caleb Burgess / Yasmeene Ball / Jonathan Mangum / Sasha Belousovski / Tatiana Gudegast / Jessi Cruickshank / Jonathan Mason / Thomas Cadrot
With their parents preoccupied with their new careers, a young girl and her brother befriend a talking monkey who is struggling to be taken seriously as an actor.
83
The Fast and the Furriest

38 views
Comments WOULD YOU LIKE TO COMMENT ?

You have to be logged in to post a comment ..