There are currently 3178 movies on our website.

Watch My Cousin Rachel 2017 DVDRip XviD AC3-6CH-iFT Online Free

0
( High Definition )

Watch My Cousin Rachel 2017 DVDRip XviD AC3-6CH-iFT Online Free

Drama / Mystery / Romance


[title]My Cousin Rachel 2017 DVDRip.XviD.AC3-6CH-iFT[/title]


[color=blue][size=5]My Cousin Rachel (2017)[/size][/color]

PG-13 | 1h 46min | Drama, Mystery, Romance | 9 June 2017 (UK)
A young Englishman plots revenge against his late cousin’s mysterious, beautiful wife, believing her responsible for his death. But his feelings become complicated as he finds himself falling under the beguiling spell of her charms.
Director: Roger Michell
Writers: Daphne Du Maurier (novel), Roger Michell (adaptation)

http://www.imdb.com/title/tt4411596/

Iain Glen…Nick Kendall
Sam Claflin…Philip
Rachel Weisz…Rachel Ashley
Holliday Grainger…Louise Kendall
Poppy Lee Friar…Mary Pascoe
Andrew Knott…Joshua
Pierfrancesco Favino…Rinaldi


















[pre]General
Complete name : My Cousin Rachel 2017 DVDRip.XviD.AC3-6CH-iFT.avi
Format : AVI
Format/Info : Audio Video Interleave
File size : 2.03 GiB
Duration : 1 h 46 min
Overall bit rate : 2 736 kb/s
Writing application : VirtualDubMod 1.5.10.2 (build 2540/release)
Writing library : VirtualDubMod build 2540/release
Video
ID : 0
Format : MPEG-4 Visual
Format profile : Advanced [email protected]
Format settings, BVOP : 2
Format settings, QPel : No
Format settings, GMC : No warppoints
Format settings, Matrix : Default (H.263)
Muxing mode : Packed bitstream
Codec ID : XVID
Codec ID/Hint : XviD
Duration : 1 h 46 min
Bit rate : 2 171 kb/s
Width : 720 pixels
Height : 304 pixels
Display aspect ratio : 2.35:1
Frame rate : 23.976 (24000/1001) FPS
Color space : YUV
Chroma subsampling : 4:2:0
Bit depth : 8 bits
Scan type : Progressive
Compression mode : Lossy
Bits/(Pixel*Frame) : 0.414
Stream size : 1.61 GiB (79%)
Writing library : XviD 73
Audio
ID : 1
Format : AC-3
Format/Info : Audio Coding 3
Format settings, Endianness : Big
Codec ID : 2000
Duration : 1 h 46 min
Bit rate mode : Constant
Bit rate : 448 kb/s
Channel(s) : 6 channels
Channel positions : Front: L C R, Side: L R, LFE
Sampling rate : 48.0 kHz
Frame rate : 31.250 FPS (1536 spf)
Bit depth : 16 bits
Compression mode : Lossy
Stream size : 340 MiB (16%)
Alignment : Split accross interleaves
Service kind : Complete Main
[/pre]

tt4411596
My Cousin Rachel (2017)
My Cousin Rachel
2017

http://www.imdb.com/title/tt4411596/
6.3

Iain Glen / Sam Claflin / Rachel Weisz / Holliday Grainger / Andrew Knott / Poppy Lee Friar / Pierfrancesco Favino / Alexander Arnold / Andrew Havill / Vicki Pepperdine / Katherine Pearce / Dorian Lough / Harrie Hayes / Attila G. Kerekes / Louis Suc
A young Englishman plots revenge against his late cousin’s mysterious, beautiful wife, believing her responsible for his death. But his feelings become complicated as he finds himself falling under the beguiling spell of her charms.
106

45 views
Comments WOULD YOU LIKE TO COMMENT ?

You have to be logged in to post a comment ..