There are currently 3084 movies on our website.

Watch My Cousin Rachel (2017) Online Free

0
( High Definition )

Watch My Cousin Rachel (2017) Online Free

Drama / Mystery / Romance




[title]My Cousin Rachel (2017) DVDRip.x264-5.1-VVEXO[/title]


[color=blue][size=5]My Cousin Rachel (2017)[/size][/color]

PG-13 | 1h 46min | Drama, Mystery, Romance | 9 June 2017 (UK)
A young Englishman plots revenge against his late cousin’s mysterious, beautiful wife, believing her responsible for his death. But his feelings become complicated as he finds himself falling under the beguiling spell of her charms.
Director: Roger Michell
Writers: Daphne Du Maurier (novel), Roger Michell (adaptation)

http://www.imdb.com/title/tt4411596/

Iain Glen…Nick Kendall
Sam Claflin…Philip
Rachel Weisz…Rachel Ashley
Holliday Grainger…Louise Kendall
Poppy Lee Friar…Mary Pascoe
Andrew Knott…Joshua
Pierfrancesco Favino…Rinaldi


















[pre]General
Complete name : My Cousin Rachel (2017) DVDRip-x264-5.1-VVEXO
Format : Matroska
Format version : Version 4 / Version 2
File size : 704 MiB
Duration : 1 h 46 min
Overall bit rate : 927 kb/s
Encoded date : UTC 2017-08-13 03:35:29
Writing application : mkvmerge v7.2.0 (‘On Every Street’) 32bit built on Sep 13 2014 15:42:11
Writing library : libebml v1.3.0 + libmatroska v1.4.1
Video
ID : 1
Format : AVC
Format/Info : Advanced Video Codec
Format profile : [email protected]
Format settings, CABAC : Yes
Format settings, ReFrames : 4 frames
Codec ID : V_MPEG4/ISO/AVC
Duration : 1 h 46 min
Bit rate : 830 kb/s
Width : 720 pixels
Height : 304 pixels
Display aspect ratio : 2.35:1
Frame rate mode : Constant
Frame rate : 23.976 (24000/1001) FPS
Color space : YUV
Chroma subsampling : 4:2:0
Bit depth : 8 bits
Scan type : Progressive
Bits/(Pixel*Frame) : 0.158
Stream size : 617 MiB (88%)
Writing library : x264 core 148 r2744 b97ae06
Encoding settings : cabac=1 / ref=3 / deblock=1:0:0 / analyse=0x3:0x113 / me=hex / subme=7 / psy=1 / psy_rd=1.00:0.00 / mixed_ref=1 / me_range=16 / chroma_me=1 / trellis=1 / 8x8dct=1 / cqm=0 / deadzone=21,11 / fast_pskip=1 / chroma_qp_offset=-2 / threads=9 / lookahead_threads=1 / sliced_threads=0 / nr=0 / decimate=1 / interlaced=0 / bluray_compat=0 / constrained_intra=0 / bframes=3 / b_pyramid=2 / b_adapt=1 / b_bias=0 / direct=1 / weightb=1 / open_gop=0 / weightp=2 / keyint=240 / keyint_min=23 / scenecut=40 / intra_refresh=0 / rc_lookahead=40 / rc=2pass / mbtree=1 / bitrate=830 / ratetol=1.0 / qcomp=0.60 / qpmin=0 / qpmax=69 / qpstep=4 / cplxblur=20.0 / qblur=0.5 / ip_ratio=1.40 / aq=1:1.00
Language : English
Default : Yes
Forced : No
Audio
ID : 2
Format : AC-3
Format/Info : Audio Coding 3
Format settings, Endianness : Big
Codec ID : A_AC3
Duration : 1 h 46 min
Bit rate mode : Constant
Bit rate : 96.0 kb/s
Channel(s) : 6 channels
Channel positions : Front: L C R, Side: L R, LFE
Sampling rate : 44.1 kHz
Frame rate : 28.711 FPS (1536 spf)
Bit depth : 16 bits
Compression mode : Lossy
Stream size : 72.9 MiB (10%)
Language : English
Service kind : Complete Main
Default : Yes
Forced : No
[/pre]

Watch My Cousin Rachel (2017) online Free

http://www.imdb.com/title/tt4411596/
6.3

Iain Glen / Sam Claflin / Rachel Weisz / Holliday Grainger / Andrew Knott / Simon Russell Beale / Poppy Lee Friar / Pierfrancesco Favino / Alexander Arnold / Andrew Havill / Vicki Pepperdine / Katherine Pearce / Dorian Lough / Harrie Hayes / Attila G. Kerekes
A young Englishman plots revenge against his late cousin’s mysterious, beautiful wife, believing her responsible for his death. But his feelings become complicated as he finds himself falling under the beguiling spell of her charms.
106

37 views
Comments WOULD YOU LIKE TO COMMENT ?