There are currently 3178 movies on our website.

Watch Oceans Rising 2017 BRRip XviD AC3-6CH-EVO Online Free

0
( High Definition )

Watch Oceans Rising 2017 BRRip XviD AC3-6CH-EVO Online Free

Action / Thriller




[title]Oceans Rising 2017 BRRip.XviD.AC3-6CH-EVO[/title]


[color=blue][size=5]Oceans Rising (2017)[/size][/color]

1h 27min | Action, Sci-Fi, Thriller | 17 January 2017 (UK)
A scientist builds a boat after his warnings of an Earth-destroying flood are ignored. But when it’s evident the disaster will occur, those who maligned the scientist now turn to him in desperation, boarding the ark and seeking his answers before the world drowns in a never ending sea.
Director: Adam Lipsius
Writer: Adam Lipsius

http://www.imdb.com/title/tt6215044/

Jason Tobias…Josh
Summer Spiro…Pam
DeJean Brown…Earl
Paola Menacho…Marjorie
Hari Williams…Greg
Gustavo Quiroz Jr….Ron
Arthur Roberts…Mel











[pre]General
Complete name : Oceans Rising 2017 BRRip.XviD.AC3-6CH-EVO.avi
Format : AVI
Format/Info : Audio Video Interleave
File size : 1.23 GiB
Duration : 1 h 26 min
Overall bit rate : 2 027 kb/s
Writing library : VirtualDub build 35491/release
Video
ID : 0
Format : MPEG-4 Visual
Format profile : [email protected]
Format settings, BVOP : No
Format settings, QPel : No
Format settings, GMC : No warppoints
Format settings, Matrix : Default (H.263)
Codec ID : XVID
Codec ID/Hint : XviD
Duration : 1 h 26 min
Bit rate : 1 490 kb/s
Width : 720 pixels
Height : 400 pixels
Display aspect ratio : 16:9
Frame rate : 23.976 (24000/1001) FPS
Color space : YUV
Chroma subsampling : 4:2:0
Bit depth : 8 bits
Scan type : Progressive
Compression mode : Lossy
Bits/(Pixel*Frame) : 0.216
Stream size : 926 MiB (74%)
Writing library : Lavc57.89.100
Audio
ID : 1
Format : AC-3
Format/Info : Audio Coding 3
Format settings, Endianness : Big
Codec ID : 2000
Duration : 1 h 26 min
Bit rate mode : Constant
Bit rate : 448 kb/s
Channel(s) : 6 channels
Channel positions : Front: L C R, Side: L R, LFE
Sampling rate : 48.0 kHz
Frame rate : 31.250 FPS (1536 spf)
Bit depth : 16 bits
Compression mode : Lossy
Stream size : 278 MiB (22%)
Alignment : Aligned on interleaves
Service kind : Complete Main
[/pre]

Watch Oceans Rising (2017) online Free

http://www.imdb.com/title/tt6215044/
2.4

Jason Tobias / Summer Spiro / DeJean Brown / Paola Menacho / Hari Williams / Gustavo Quiroz Jr. / Arthur Roberts / Annabel Barrett / Jeff Harms / Kevin Young / Ikaika / Rickey Alexander Wilson / Paul Statman / Ronak Gandhi / Roy Abramsohn
A scientist builds a boat after his warnings of an Earth-destroying flood are ignored. But when it’s evident the disaster will occur, those who maligned the scientist now turn to him in desperation, boarding the ark and seeking his answers before the world drowns in a never ending sea.
87

48 views
Comments WOULD YOU LIKE TO COMMENT ?

You have to be logged in to post a comment ..