There are currently 3178 movies on our website.

Watch The Mummy (2017) Online Free

0
( High Definition )

Watch The Mummy (2017) Online Free

Action / Adventure / Fantasy / Thriller

General
Complete name : The Mummy 2017 BRRip x264 AAC-SSN.mkv
Format : Matroska
Format version : Version 4 / Version 2
File size : 1.37 GiB
Duration : 1 h 50 min
Overall bit rate : 1 788 kb/s
Encoded date : UTC 2017-08-30 08:43:43
Writing application : mkvmerge v13.0.0 (‘The Juggler’) 64bit
Writing library : libebml v1.3.4 + libmatroska v1.4.5
Video
ID : 1
Format : AVC
Format/Info : Advanced Video Codec
Format profile : [email protected]
Format settings, CABAC : Yes
Format settings, ReFrames : 5 frames
Codec ID : V_MPEG4/ISO/AVC
Duration : 1 h 50 min
Bit rate : 1 457 kb/s
Width : 900 pixels
Height : 376 pixels
Display aspect ratio : 2.40:1
Frame rate mode : Constant
Frame rate : 23.976 (24000/1001) FPS
Color space : YUV
Chroma subsampling : 4:2:0
Bit depth : 8 bits
Scan type : Progressive
Bits/(Pixel*Frame) : 0.180
Stream size : 1.12 GiB (81%)
Writing library : x264 core 152 r2851 ba24899
Encoding settings : cabac=1 / ref=5 / deblock=1:0:0 / analyse=0x3:0x112 / me=dia / subme=1 / psy=0 / mixed_ref=1 / me_range=16 / chroma_me=1 / trellis=0 / 8x8dct=1 / cqm=0 / deadzone=22,11 / fast_pskip=1 / chroma_qp_offset=1 / threads=6 / lookahead_threads=2 / sliced_threads=0 / nr=0 / decimate=1 / interlaced=0 / bluray_compat=0 / constrained_intra=0 / bframes=10 / b_pyramid=2 / b_adapt=2 / b_bias=23 / direct=3 / weightb=1 / open_gop=1 / weightp=2 / keyint=250 / keyint_min=1 / scenecut=40 / intra_refresh=0 / rc_lookahead=100 / rc=2pass / mbtree=1 / bitrate=1457 / ratetol=3.0 / qcomp=0.80 / qpmin=10 / qpmax=40 / qpstep=3 / cplxblur=20.0 / qblur=0.5 / vbv_maxrate=50000 / vbv_bufsize=50000 / nal_hrd=none / filler=0 / ip_ratio=1.30 / aq=1:1.00
Language : English
Default : Yes
Forced : No
Audio
ID : 2
Format : AAC
Format/Info : Advanced Audio Codec
Format profile : LC
Codec ID : A_AAC
Duration : 1 h 50 min
Bit rate : 331 kb/s
Channel(s) : 6 channels
Channel positions : Front: L C R, Side: L R, LFE
Sampling rate : 32.0 kHz
Frame rate : 31.250 FPS (1024 spf)
Compression mode : Lossy
Stream size : 260 MiB (18%)
Language : English
Default : Yes
Forced : No

Watch The Mummy (2017) online Free

http://www.imdb.com/title/tt2345759/
5.6

Tom Cruise / Russell Crowe / Annabelle Wallis / Sofia Boutella / Jake Johnson / Courtney B. Vance / Marwan Kenzari / Simon Atherton / Stephen Thompson / James Arama / Matthew Wilkas / Sohm Kapila / Sean Cameron Michael / Rez Kempton / Erol Ismail
Though safely entombed in a crypt deep beneath the unforgiving desert, an ancient princess, whose destiny was unjustly taken from her, is awakened in our current day bringing with her malevolence grown over millennia, and terrors that defy human comprehension.

Ancient evil returns

89 views
Comments WOULD YOU LIKE TO COMMENT ?

You have to be logged in to post a comment ..